#TITLE:Welcome! UNKNOWN;
#SUBTITLE:- Suzumiya Haruhi no Yuuutsu;
#ARTIST:Hirano Aya, Chihara Minori & Goto Yuko;
#TITLETRANSLIT:;
#SUBTITLETRANSLIT:- The Melancholy of Haruhi Suzumiya;
#ARTISTTRANSLIT:;
#CREDIT:Kyon;
#BANNER:Welcome! UNKNOWN.png;
#BACKGROUND:Welcome! UNKNOWN-bg.png;
#LYRICSPATH:;
#CDTITLE:Dj DMA Original Simfile.png;
#MUSIC:Welcome! UNKNOWN.mp3;
#OFFSET:-0.100;
#SAMPLESTART:49.014;
#SAMPLELENGTH:12.000;
#SELECTABLE:YES;
#BPMS:0.000=170.000;
#STOPS:;
#BGCHANGES:0.000=Welcome! UNKNOWN.avi=1.000=1=1=0,
565.000=Welcome! UNKNOWN.avi=1.000=1=0=1,
99999=-nosongbg-=1.000=0=0=0 // don't automatically add -songbackground-
;
// cache tags:
#FIRSTBEAT:3.000;
#LASTBEAT:562.000;
#SONGFILENAME:songs/Otaku's Dream 3rd Anime Mix/[Dj DMAxel] Welcome! UNKNOWN - Suzumiya Haruhi no Yuuutsu/Welcome! UNKNOWN.sm;
#HASMUSIC:1;
#HASBANNER:1;
#MUSICLENGTH:200.019;
// end cache tags

//---------------dance-single - ----------------
#NOTES:
     dance-single:
     :
     Easy:
     5:
     0.352,0.421,0.285,0.045,0.000,427.000,57.000,9.000,0.000,0.000:
0000
0000
0000
0000
,
0000
0000
0000
0001
,
0000
1000
0000
0001
,
0000
0010
0000
0100
,
0000
0010
0000
1000
,
0000
0001
0000
1000
,
1000
0001
0001
0010
,
0010
0100
0100
0001
,
0001
1000
1000
0010
,
1010
0100
0010
0001
,
0001
0100
0100
1000
,
0010
0110
1000
1000
,
0010
0010
0100
0010
,
0101
1001
0000
0001
,
1000
0000
1000
0000
,
0001
0000
1000
0000
,
0010
0000
0100
0001
,
0002
0000
0000
0000
,
1003
0000
0001
0000
,
1000
0000
0010
0000
,
0100
0000
0001
0000
,
1000
0000
0001
0001
,
1000
1000
0010
1001
,
0010
0110
0001
1000
,
0010
0001
0101
1000
,
1000
0001
0001
0100
,
0100
0010
0010
1000
,
1000
0010
1000
0010
,
0100
0010
0000
0001
,
0100
1000
0010
1000
,
0010
0100
0010
0100
,
0001
0000
1000
0000
,
0001
1000
0010
1000
,
0001
0100
0010
1000
,
0001
0001
1000
1001
,
0010
1001
0010
0100
,
0010
1000
0110
1000
,
0100
0100
0010
1000
,
0001
1000
1010
0100
,
0001
0001
0100
1000
,
1000
0010
0010
0100
,
0001
0001
1000
1000
,
1001
0100
0101
1000
,
1000
0010
1010
0100
,
0100
0010
0011
0001
,
0001
0100
1000
0100
,
0001
1000
1000
1001
,
0100
0100
0010
0100
,
1000
0010
0100
0110
,
1000
0100
0101
1001
,
0010
1000
0001
2000
,
3002
0023
2030
3020
,
0000
0230
0300
0001
,
1000
1000
0001
1001
,
0010
0100
0100
0010
,
0001
0001
1000
1001
,
1000
1000
0010
0100
,
0100
0110
1000
1000
,
0010
1000
0100
0001
,
0100
1000
0001
1001
,
0000
0000
0000
0001
,
1000
1000
0010
1000
,
1000
0010
0000
0001
,
0000
1000
0000
0010
,
0000
0000
0000
0001
,
0001
1000
0010
0010
,
0100
0010
1000
0100
,
0001
0001
1000
1001
,
0010
1000
0010
0110
,
1010
0101
0101
1001
,
0000
0001
0000
1000
,
0001
0000
1000
0010
,
0000
0100
0000
0010
,
0000
0001
0000
1000
,
0000
0010
0000
0100
,
0000
0010
0000
0001
,
0001
1000
1000
0010
,
0010
0100
0100
0001
,
0000
1000
0000
0010
,
0000
0100
0000
0010
,
0001
0100
1000
0010
,
0100
0001
1000
1001
,
0100
0001
0100
1000
,
0010
0100
1010
0100
,
0001
0100
0010
0100
,
0100
0010
0011
0001
,
0001
1000
1000
0010
,
0110
0100
0001
0101
,
1000
0001
0001
1001
,
1001
0110
1001
0010
,
1000
0010
1010
0100
,
0100
0010
0101
0001
,
0001
1000
1000
0001
,
1000
0010
0100
0110
,
1000
0100
0001
0001
,
1000
0001
1000
1001
,
0100
1000
1000
0001
,
0100
0010
0100
0101
,
0000
1000
0000
0000
0001
0000
0000
0010
,
0000
1000
0010
0001
,
0000
0000
0000
1000
,
0000
0001
0000
1000
,
0000
0010
0000
0100
,
0000
0001
0000
1000
,
0000
0010
0000
0100
,
0000
0001
0000
1000
,
0000
0010
0000
0010
,
0000
0100
0000
0100
,
0000
0010
0000
0010
,
0000
0001
0000
1000
,
0000
0001
1000
0010
,
1000
0010
0100
0101
,
1000
0001
0101
1000
,
0010
0100
0110
1000
,
0001
0100
1000
0001
,
0001
1000
0010
1001
,
0010
0100
0010
1010
,
0100
0010
0100
1001
,
0010
1000
0010
0110
,
0110
1001
1001
0100
,
0001
0001
1001
0010
,
0100
0010
0110
1000
,
0001
0100
1000
1000
,
0001
1000
0000
0010
,
0000
0100
0000
0001
,
0000
1000
0000
0010
,
0010
0100
0100
0001
,
1001
1000
1000
0001
,
0000
1000
0000
0000
0001
0000
0000
0010
,
0000
2002
3003
0000
;

//---------------dance-single - ----------------
#NOTES:
     dance-single:
     :
     Hard:
     8:
     0.623,0.632,0.400,0.065,0.010,779.000,80.000,13.000,0.000,0.000:
0000
0000
0000
0000
,
0000
0000
0000
0110
,
0000
0110
0000
1001
,
0000
0110
0000
1001
,
0000
0110
0000
1010
,
1001
0000
0101
0000
0010
0000
0010
0001
,
0100
0000
0100
1000
0100
0000
0100
1000
,
0100
1000
0010
0000
1000
0000
0010
0001
,
0100
0000
0100
1000
0100
0000
0010
0001
,
0100
1000
0100
1000
0001
0000
0100
1000
,
0100
0000
0001
1000
0001
0000
0010
0001
,
0100
0100
0010
0100
,
1000
0100
0001
1000
0100
0000
0010
0001
,
0100
0001
0100
0010
0001
0010
0100
0000
,
0001
1000
0001
0000
0010
0000
0000
0000
,
0100
0000
0000
0000
1000
0000
0100
0010
,
0100
0000
0100
0001
1000
0000
0110
0000
,
0000
0000
0000
0000
0000
0000
0010
0001
,
0100
1000
0100
0000
0100
0000
0100
1000
,
0100
0000
0001
1000
0001
0000
0010
0000
,
0100
0000
1000
0000
0100
0000
0010
0001
,
0100
0000
0100
1000
0100
0000
0001
1000
,
0100
0010
0100
0001
0100
1000
0100
0000
,
0110
0000
1001
0000
0000
0000
0010
0001
,
0010
0001
0000
0010
0110
0000
0010
0001
,
0100
0000
0100
1000
0100
0000
0001
1000
,
0001
0000
0010
0001
0100
0000
0010
0100
,
0001
0000
0001
0010
0001
0000
0001
0010
,
0001
0000
0010
1000
0010
0000
0001
1000
,
0001
0000
0100
1000
0100
0000
0001
1000
,
0001
0000
0010
0001
0100
0000
0100
0010
,
0001
0000
0010
0001
0100
0000
0100
0001
,
0010
0001
0100
0000
1000
0000
0001
1000
,
0001
0000
0001
1000
0100
0000
0100
0010
,
0010
0001
0100
0001
0100
0001
0101
0000
,
1000
0000
0001
0000
0011
0000
0010
0001
,
0100
0010
0001
0000
0001
0100
0001
0000
,
0001
0100
1000
0000
1000
0100
1000
0001
,
1000
0000
0010
0001
0100
0000
0010
0000
,
0110
0000
1000
0001
1000
0000
0100
1000
,
0100
0000
0001
0010
0001
0000
0010
0000
,
0011
1000
0001
1001
,
0110
0000
0011
0000
1100
0000
0010
0001
,
0100
1000
0100
0000
1100
0000
0001
0010
,
0001
1000
0100
0000
1001
0000
0010
0001
,
0100
0000
0100
0010
0100
0000
0001
1000
,
0100
0010
0001
0100
1000
0000
0100
1000
,
0100
0000
0001
1000
0001
0000
0010
0001
,
0100
0001
0010
0001
0100
0000
0100
1000
,
0100
0000
0100
0010
0001
0000
1000
0000
,
0011
0000
1000
0000
0011
0000
0010
0001
,
0100
0000
0100
0001
0010
0001
0100
0000
,
1000
0000
2200
0000
3300
0000
0010
0001
,
0100
0000
0100
0100
0010
0000
0010
0010
,
0001
1000
0100
0000
0010
0100
0010
0000
,
0100
1000
0100
0000
0001
0001
1000
1000
,
0100
1000
0100
1000
0100
0000
0100
0000
,
0010
0010
0001
0001
1000
0000
0001
0010
,
0001
0010
0100
1000
0100
0000
0100
0100
,
1000
0000
0001
0001
1000
0000
0010
0001
,
0200
0000
0300
0000
0000
0000
0010
0001
,
0100
1000
0100
0000
1000
0000
0001
0000
,
1000
0010
0001
0100
,
1000
0100
0001
0010
0001
0000
0011
0000
,
0000
0000
0000
0000
0000
0000
0010
0100
,
0010
0100
1000
0000
0100
0000
0001
1000
,
0001
1000
0100
0000
0010
0000
0010
0001
,
0100
0001
0100
0010
0100
0000
0001
0010
,
0001
0000
0001
1000
0001
0000
0010
0001
,
0100
0001
0100
0010
0100
0010
0100
0000
,
0110
0000
1000
0000
1001
0000
0100
1000
,
0100
1000
0000
0001
1000
0000
0010
0000
,
0011
0000
1000
0000
0011
0100
0001
0000
,
0011
0000
0100
1000
0100
0000
0100
0010
,
0100
1000
1001
1010
,
0100
0010
0100
0010
0100
0000
0010
0001
,
0100
0001
0010
0001
0100
0000
0100
0000
,
1100
0000
0001
0000
1000
0001
0010
0000
,
0100
0000
0010
0100
0010
0100
1000
0000
,
0110
0000
0011
0000
1000
0000
0001
0010
,
0001
0100
0001
0010
1000
0001
0100
0010
,
0110
0000
1000
0000
1001
0000
0100
0010
,
0100
0000
1000
0000
1001
0000
0010
0001
,
0100
1000
0010
0000
0011
0000
0010
0001
,
0100
0000
0001
0000
0100
0010
0010
0001
,
0100
1000
0100
1000
0001
0000
1000
0000
,
1001
0000
0100
1000
0100
0000
0001
0000
,
0011
0000
0010
0001
0100
0000
0110
0000
,
1001
0000
0100
0010
0100
0000
0110
0000
,
0110
0000
1001
0000
0110
0000
0010
0001
,
0100
1000
0100
0000
1100
0000
0001
1000
,
0001
1000
0001
0000
0011
0000
0010
0001
,
0100
0000
0100
1000
0100
0000
0001
1000
,
0010
0001
0100
1000
0100
0000
0010
0001
,
0100
0000
0100
0010
0100
0000
1100
0000
,
1100
0000
0001
1000
0010
0000
0010
0001
,
0100
0000
0100
0001
0010
0000
1000
0000
,
1100
0000
1001
0000
0011
0000
0010
0001
,
0100
0000
0100
0001
0010
0000
0001
0100
,
0001
0000
0100
0000
0010
0000
0001
0000
0100
0000
0000
0000
0100
0010
0100
0000
,
0010
0100
0010
0000
1000
0100
1000
0000
1000
0001
1000
0000
0100
0000
0010
0000
,
0001
0000
1000
0100
1000
0000
0100
0010
,
0100
0000
0100
1000
0001
0000
0100
0010
,
0001
0000
0010
0000
0001
0000
0100
0001
,
1000
0000
0001
0001
1000
0000
0010
0001
,
0011
0000
1000
1000
1100
0000
0001
0001
,
1001
0000
0010
0010
0110
0000
0001
0100
,
0001
0000
0010
0001
0100
0000
0010
0001
,
0100
0001
0010
0000
0110
0000
0010
0001
,
0100
0000
1000
0100
1000
0000
0001
0100
,
0001
0010
0001
0100
1000
0100
1000
0000
,
1001
0000
0011
0000
0011
0000
0100
0010
,
0100
0010
0100
0000
1001
0000
0010
0001
,
0100
1000
0100
0000
1000
0000
1001
0000
,
0001
0100
0010
0000
1100
0000
0110
0000
,
0001
0000
0100
1000
0100
0000
0100
0010
,
0100
0000
0100
0000
0100
1000
0001
0001
,
1001
0000
0100
0010
0001
0000
0010
0000
,
0101
0000
0100
1000
0100
0000
0001
0000
,
0011
0000
0110
0000
1001
0000
0100
0010
,
0100
1000
0001
0000
0100
0000
1000
0100
,
0010
0001
0100
0000
0010
0000
0100
1000
,
0100
1000
0001
0000
0010
0001
0100
0000
,
0100
0010
0001
0000
0100
0000
2000
0000
,
0000
0000
3002
0000
0000
0003
0020
0000
,
0000
0000
0230
0000
0300
0000
0010
0001
,
0100
0000
0100
1000
0100
0000
0001
1000
,
0100
1000
0001
1000
0100
0000
0010
0001
,
0100
0000
0001
1000
0010
0010
0001
0100
,
0001
0010
0001
0100
1000
0000
0110
0000
,
1001
0000
0110
0000
0011
0000
0010
0001
,
0100
1000
0100
0000
1000
0000
0200
0000
,
1300
0000
0002
0000
1003
0000
0010
0001
,
0100
1000
0010
0001
0100
0000
0020
0000
,
0130
0000
0200
0000
1300
0000
0010
0001
,
0100
1000
0100
0000
0010
0000
0011
0000
,
1001
0000
0010
0001
0100
0000
0010
0001
,
0100
0001
0010
0001
0100
1000
0100
1000
,
0001
1000
0100
0001
0010
0100
0100
0010
,
0001
0100
1000
0010
0001
0010
0001
0000
,
0100
0220
0330
0000
;

//---------------dance-single - ----------------
#NOTES:
     dance-single:
     :
     Challenge:
     9:
     0.674,0.738,0.505,0.065,0.050,830.000,101.000,13.000,0.000,0.000:
0000
0000
0000
2002
,
0000
0000
3003
1001
,
0000
0000
1001
0000
0000
0000
0110
0010
,
0100
0010
1001
0000
0110
0000
0110
0000
,
0000
0000
0000
0000
1001
0000
0000
0000
0000
0000
0000
0000
0010
0001
0010
0000
,
0010
0100
0010
0000
0001
0100
0001
0000
0001
0000
0000
0000
0001
0000
0100
0000
,
1000
0000
1000
0010
1000
0000
1000
0010
,
1000
0010
0100
0000
0110
0000
0001
0100
,
1000
0000
1000
0010
1000
0000
0001
0100
,
1000
0100
1000
0100
0001
0000
1000
0010
,
1000
0000
0100
0010
0100
0000
0001
0100
,
1000
1000
1001
1000
,
0010
0000
1000
0000
0100
0000
1000
0000
0010
0000
0000
0000
0001
0010
0001
0000
,
1000
0100
1000
0000
0010
0100
0010
0000
0100
0000
1000
0000
0010
0000
0000
0000
,
0100
0010
0100
0000
0001
0000
0010
0000
,
1000
0000
0100
0000
0110
0000
1000
0001
,
1000
0000
0000
0000
1000
0000
0100
0000
0010
0000
0000
0000
1000
0000
0000
1000
,
0000
1001
0000
0000
0000
0000
0001
0100
,
1000
0010
1000
0000
1000
0000
1000
0010
,
1000
0000
0100
0010
0100
0000
1001
1000
,
0001
1000
0000
0000
1000
0000
0001
0100
,
1000
0000
1000
0010
1000
0000
0100
0001
,
1000
0001
1000
0100
1000
0010
1000
0000
,
1001
0000
0000
0000
0110
0000
0000
0000
1000
0000
0000
0000
0001
0100
0001
0000
,
1000
0010
1000
0000
0001
1000
0001
0000
1001
0000
0000
0000
0001
0000
0100
0000
,
1000
0000
1000
0010
1000
0000
0100
0010
,
0100
0000
0001
0100
1000
0000
0001
1000
,
0100
0000
0100
0001
0100
0000
0100
0001
,
0100
0000
0001
0010
0001
0000
0100
0010
,
0100
0000
1000
0010
1000
0000
0100
0010
,
0100
0000
0001
0100
1000
0000
1000
0001
,
0100
0000
0001
0100
1000
0000
1000
0100
,
0001
0100
1000
0000
0010
0000
0100
0010
,
0100
0010
0100
0010
1000
0000
1000
0001
,
0001
0100
1000
0100
1000
0010
1001
0000
,
0010
0000
0100
0000
0101
0000
0001
0100
,
1000
0100
1000
0000
1100
0100
1000
0000
,
0100
0001
1000
0000
0010
1000
0010
0100
,
0010
0000
0001
0100
1000
0000
0001
0000
,
1001
0000
0010
0100
0010
0000
1000
0010
,
1000
0000
0100
0001
0100
0000
0001
0000
,
0101
0010
0100
0110
,
1001
0000
0101
0000
1010
0000
0001
0100
,
1000
0010
1000
0000
1010
0000
0100
0001
,
0100
0010
0100
0000
0110
0000
0001
0100
,
1000
0000
1000
0001
1000
0000
0100
1000
,
0010
0001
0100
1000
0010
0000
1000
0010
,
1000
0000
0100
0010
0100
0000
0001
0100
,
1000
0100
0001
0100
1000
0000
1001
0010
,
1000
0000
1000
0001
0100
0000
0010
0000
,
0101
0000
0010
0000
0101
0000
0010
0100
,
1000
0010
1000
0100
0001
0100
1000
0100
,
0010
0000
2020
0000
3030
0000
0001
0100
,
1000
0000
1000
1000
0001
0000
0001
0001
,
0100
0001
0100
0000
0001
1000
0001
0000
,
1000
0010
1000
0000
0100
0100
0010
0010
,
1000
0010
1000
0010
1000
0000
1001
0000
,
0001
0001
0100
0100
0010
0000
0100
0001
,
0100
0001
1000
0010
1000
0000
1000
1000
,
0010
0000
0100
0100
0010
0000
0001
0100
,
2000
0000
3000
0000
0000
0000
0001
0100
,
1000
0010
1000
0000
0010
0000
0100
1000
,
0010
1000
0010
0000
0100
0000
1000
0000
,
0010
0000
1000
0000
0100
0000
0001
0000
0100
0000
0000
0000
0101
0000
0000
0010
,
0000
0101
0000
0000
0000
0000
0001
1000
,
0001
1000
0010
0000
1000
0000
0100
0010
,
0100
0010
1000
0000
0100
0000
1100
0100
,
1000
0100
1000
0001
1000
0000
0100
0001
,
0100
0000
0100
0010
0100
0000
0001
0100
,
1000
0100
1000
0001
1000
0001
1000
0000
,
1001
0000
0010
0000
0110
0000
1000
0010
,
1000
0010
0000
0100
0010
0000
0001
0000
,
0101
0000
0010
0100
0001
1000
0100
0000
,
0101
0000
1000
0010
1000
0000
1000
0001
,
1000
0010
0110
0011
,
1000
0001
1000
0001
1000
0000
0001
0100
,
1000
0100
0001
0100
1000
0000
1000
0000
,
1010
0000
0100
0000
0010
0100
0001
0000
,
1000
0000
0001
1000
0001
1000
0010
0000
,
1001
0000
0101
0000
0010
0000
0100
0001
,
0100
1000
0100
0010
0100
0010
0100
0001
,
1001
0000
0010
0000
0110
0000
1000
0001
,
1000
0000
0010
0000
0110
0000
0001
0100
,
1000
0010
0001
0000
0101
0000
0001
0100
,
1000
0000
0100
0000
1000
0001
0001
0100
,
1000
0010
1000
0010
0100
0000
0010
0000
,
0110
0000
1000
0010
1000
0000
0100
0000
,
0101
0000
0001
0100
1000
0000
1001
0000
,
0110
0000
1000
0001
1000
0000
1001
0000
,
1001
0000
0110
0000
1001
0000
0001
0100
,
1000
0010
1000
0000
1010
0000
0100
0010
,
0100
0010
0100
0000
0101
0000
0001
0100
,
1000
0000
1000
0010
1000
0000
0100
0010
,
0100
0010
1000
0010
1000
0000
0001
0100
,
1000
0000
1000
0001
1000
0000
1010
0000
,
1010
0000
0100
0010
0001
0000
0001
0100
,
1000
0000
1000
0100
0001
0000
0010
0000
,
1010
0000
0110
0000
0101
0000
0001
0100
,
1000
0010
1000
0100
1000
0010
0100
1000
,
0100
0000
1000
0000
0001
0000
0100
0000
1000
0000
0000
0000
1000
0001
1000
0000
,
0001
1000
0001
0000
0010
1000
0010
0000
0000
0000
0000
0000
1000
0000
0001
0000
,
0100
0001
0100
0000
0001
0000
0100
0000
0011
0000
0000
0000
1001
0000
0001
0000
,
0100
0001
0100
0000
0001
0000
0100
0000
0101
0000
0000
0000
1010
0000
1000
0000
,
0010
0000
1000
0000
0010
0000
0100
0000
1100
0000
0000
0000
1000
0010
1000
0010
,
1000
0000
0000
0000
0010
0001
0010
0001
0010
0000
0000
0000
0001
0000
0100
0000
,
0101
0000
0010
0010
1010
0000
0100
0100
,
0110
0000
0001
0001
1001
0001
0010
0001
,
0100
0000
0001
0100
1001
0000
0001
0100
,
1000
0100
0001
0000
0101
0000
0001
0100
,
1000
0000
0010
1000
0010
0000
0100
0010
,
1000
0001
0100
1000
0010
1000
0010
0000
,
0110
0000
0101
0000
0101
0000
1000
0001
,
1000
0001
1000
0000
0110
0000
0001
0100
,
1000
0010
1000
0000
0110
0000
0010
0000
,
0100
1000
0001
0000
1010
0000
1001
0000
,
0100
0000
1000
0010
1000
0000
1000
0001
,
1000
0000
1000
0000
1000
0010
0100
0100
,
0110
0000
1000
0001
1000
0000
0001
0000
,
1100
0000
1000
0010
1000
0000
0100
0000
,
0101
0000
1001
0000
0110
0000
1000
0001
,
1000
0001
0100
0000
1001
0000
0010
0100
,
0010
0100
1000
0000
0101
0000
1000
0010
,
1000
0010
0100
0000
0001
0100
1000
0000
,
1000
0100
0001
0000
1000
0000
0020
0000
,
1000
0230
0010
0302
,
1000
0000
2003
0000
3001
0000
1001
0001
,
1000
0000
1010
0010
1000
0000
0100
0010
,
1000
0010
0100
0010
1000
0000
0001
0100
,
1000
0010
0100
0010
0001
0001
0100
1000
,
0100
0001
0100
1000
0010
0000
1001
0000
,
0110
0000
1001
0000
0101
0000
0001
0100
,
1000
0010
1000
0000
0010
0000
2000
0010
,
3010
0000
0200
0010
0310
0000
0001
0100
,
1000
0010
0001
0100
1000
0000
0002
0000
,
1003
0000
2000
0000
3010
0000
0010
0100
,
1000
0010
1000
0000
0001
0000
0101
0000
,
0110
0000
0001
0100
1000
0000
1001
0100
,
1000
0100
0001
0100
1000
0010
1010
0010
,
0100
0010
1000
0010
0100
1000
1001
0001
,
0100
0001
0100
0001
1000
0001
1000
0000
,
1000
0000
0010
1001
1001
0000
0000
0000
;

//---------------dance-single - ----------------
#NOTES:
     dance-single:
     :
     Medium:
     7:
     0.573,0.562,0.475,0.125,0.000,682.000,95.000,25.000,0.000,0.000:
0000
0000
0000
0000
,
0000
0000
0000
0010
,
0000
0100
0000
1000
,
0000
0001
0000
1000
,
0000
1000
0000
0201
,
0000
0301
0100
1000
,
1001
0100
0101
1000
,
0001
1000
0110
0100
,
1010
0010
0011
0010
,
1001
0000
1000
0000
1100
0000
0010
1000
,
1000
0000
1000
1000
0010
0000
0010
0000
,
1001
0000
0100
0000
0110
0000
0010
1000
,
0010
0000
0010
0001
0100
0000
0110
0000
,
0000
0000
0000
0000
,
0001
0000
0001
0000
,
0010
0000
0100
0000
,
0001
0000
0220
0330
,
0000
0000
0000
0000
,
0001
0000
0100
0000
,
0001
0000
0010
0000
,
0001
0000
0000
0000
1000
0000
0100
0100
,
0001
0000
0100
0100
1000
0000
0100
0001
,
1000
0100
0010
0010
0100
0001
0001
0000
,
0101
1100
0000
0110
,
0101
0000
0010
0000
1010
0000
0010
0001
,
0100
0000
0001
0010
0001
0000
0010
1000
,
1000
0000
1000
0100
0001
0000
0010
0100
,
0001
0000
1000
0100
0001
0000
0001
0001
,
0100
0000
0100
0010
0001
0000
0001
0001
,
0001
0000
0001
0001
0010
0000
1000
0100
,
0100
0000
1000
0100
1000
0000
0100
1000
,
0100
0000
1000
1000
0100
0000
0002
0000
,
0000
0000
0003
0000
1000
0000
0010
0001
,
0010
0000
0100
0001
0001
0000
0010
0001
,
1000
0010
0110
0110
,
0010
0000
0001
0000
0011
0000
0100
0001
,
1000
1000
0010
0000
1000
0001
0001
0000
,
0100
0001
1000
0000
1000
0001
0021
0000
,
0130
0000
0100
0100
0001
0000
1000
0000
,
1010
0001
0101
1000
,
0110
0000
0001
0010
0100
0000
0100
0000
,
1010
0100
1000
0110
,
1010
0000
1010
0000
0011
0000
0100
0001
,
0010
1000
0010
0000
0011
0000
1000
0100
,
0001
0010
0100
0000
0101
0000
0100
0010
,
1000
0000
0010
0010
0010
0000
0001
0010
,
0001
0001
0010
0001
1000
0000
0010
0010
,
0010
0000
0001
0010
0010
0000
0010
0001
,
0010
0010
0001
0010
0100
0000
0010
1000
,
0010
0000
0100
1000
0001
0000
0100
0000
,
1010
1000
1100
2000
,
3000
0002
0103
0002
,
0013
0000
0202
0000
0303
0000
0010
0010
,
0100
0000
0001
0010
1000
0000
0100
0000
,
0010
1000
0010
0100
,
0010
0010
0100
1000
,
0010
0000
0001
0001
1000
0000
0100
0000
,
1001
0000
0010
0010
1000
0000
0100
0100
,
0010
0001
1000
0001
0001
0000
0010
1000
,
0001
0000
0001
1000
0100
0000
0001
0001
,
0002
0000
0003
0000
0000
0000
0100
1000
,
0001
0010
0010
0000
0001
0000
0100
0000
,
1000
0010
0010
1000
,
0001
0100
0010
1100
,
0000
0000
0000
0000
0000
0000
0001
0100
,
0100
0010
0001
0000
0010
0000
0010
0010
,
0001
0001
0100
0000
0010
0000
0001
1000
,
0100
0100
0010
0100
0001
0000
0100
0001
,
0010
0000
0010
1000
0001
0000
0010
1000
,
0100
0001
0010
0010
0100
0100
0001
0000
,
0110
0000
0010
0000
1100
0000
0001
1000
,
0010
0001
0000
0010
1000
0000
0010
0000
,
0011
0001
0101
1000
,
0101
0001
0010
0001
,
0010
0001
1100
1100
,
1000
0001
0010
0100
0001
0000
0100
0001
,
0010
0010
1000
1000
0010
0000
0010
0000
,
0101
0000
1000
0000
0001
0001
0100
0000
,
0100
0000
0100
1000
0100
0010
0001
0000
,
1100
0000
1100
0000
0001
0000
1000
0001
,
1000
0100
0100
0010
1000
0010
1000
0010
,
0011
0000
0010
0000
0011
0000
0100
0001
,
1000
0000
1000
0000
0110
0000
0100
0001
,
0010
0001
0001
0000
1001
0000
0010
0001
,
0001
0000
0001
0000
0100
0001
0010
0010
,
1000
0001
0010
0001
0100
0000
1000
0000
,
1010
0000
0001
0001
0010
0000
0001
0000
,
0011
0000
1000
1000
0001
0000
0101
0000
,
1010
0000
0100
1000
0010
0000
1010
0000
,
0110
0000
0011
0000
1010
0000
0001
0010
,
0001
0010
0001
0000
0011
0000
0100
1000
,
1000
0001
0100
0000
0011
0000
1000
0100
,
0010
0000
0010
1000
1000
0000
0001
1000
,
1000
1000
0100
0001
1000
0000
0010
0100
,
0001
0000
0100
0010
0010
0000
1010
0000
,
0011
0000
0001
1000
1000
0000
1000
1000
,
0100
0000
0010
0001
0001
0000
0001
0000
,
0011
0110
0101
0020
,
1000
0031
2000
0100
,
3010
0000
2000
0000
3000
0000
0002
0003
,
2000
3000
0200
0300
0200
0300
1100
0000
,
1000
0101
0100
0011
,
0010
0000
0001
0010
0100
0000
0010
1000
,
0010
0000
0010
0000
0100
0000
1000
0010
,
0010
0000
0001
0100
1000
0000
1000
0100
,
0101
0000
0001
1000
1001
0000
0010
0001
,
1001
0000
0100
1000
0001
0000
0010
0100
,
0100
0000
1000
1000
1000
0000
1000
1000
,
1000
0000
0100
0000
0101
0000
1000
0001
,
0001
0000
0010
1000
1000
0000
0100
0100
,
0100
0000
1000
0001
0100
0000
0001
0000
,
1010
0000
1001
0000
0011
0000
0100
0010
,
0001
0001
1000
0000
0101
0000
0100
1000
,
0001
1000
0100
0000
0001
0000
0110
0000
,
0010
0100
0100
0000
1001
0000
1100
0000
,
0100
0000
1000
0001
1000
0000
0100
1000
,
0001
0000
0010
0000
1000
0010
0010
0001
,
0001
0000
0010
0100
0010
0000
0001
0000
,
1100
0000
0001
0010
0100
0000
0001
0000
,
1010
0000
1100
0000
1001
0000
0010
0100
,
1000
0001
0100
0000
0010
0000
0010
0100
,
0100
0001
0001
0000
0100
0000
1000
0100
,
0100
1000
0010
0000
0100
0100
0001
0000
,
0010
1000
0001
0000
1000
0000
0001
0000
,
0001
0001
0010
0010
,
0010
0000
0011
0000
0000
0000
0001
1000
,
0010
0000
0100
1000
0010
0000
0100
0010
,
0010
0001
1000
0010
0001
0000
0100
0010
,
1000
0000
0001
0010
0010
0100
1000
0010
,
1000
0010
1000
0010
0001
0000
0011
0000
,
1010
0000
1001
0000
0110
0000
0100
0001
,
0100
0001
1000
0000
0100
0000
1000
0000
,
1100
0000
1000
0000
1100
0000
0001
0001
,
0001
1000
0001
0001
1000
0000
1000
0000
,
0011
0000
1000
0000
0101
0000
1000
0010
,
1000
0010
1000
0000
1000
0000
0110
0000
,
1010
0000
1000
0100
0100
0000
2000
0000
,
0010
3001
0002
0000
,
0003
0002
0100
0013
,
0020
0001
0030
0020
,
0031
2002
3003
0000
;
